Скачать через торрент Черный 47-й Black 47 Фильм бесплатно в хорошем качестве torrent

Скачивайте на UnionPeer.org фильмы через торрент без регистрации. Новинки кино в хорошем качестве через торрент. На UnionPeer.org можно скачать через торрент фильмы 2014 и 2015 годов. Самые новые фильмы.

Скачать торрент Черный 47-й Black 47 бесплатно через .torrent фильм мультфильм сериал

Статистика раздачи
Размер:  742 MB   |    Зарегистрирован:  6 дней   |    .torrent скачан:  117 раз   |   
Раздают:  1  
   
загрузка...
 
Автор Сообщение

Galfimbul

avatar Galfimbul


Название: Черный 47-й
Оригинальное название: Black 47
Год выхода: 2018
Жанр: Боевик, драма
Режиссер: Лэнс Дэйли
В ролях: Хьюго Уивинг, Джеймс Фрешвилл, Стивен Ри, Фредди Фокс, Барри Кеоган, Мо Данфорд, Сара Грин, Джим Бродбент.

О фильме:
Рейнджер армии Британской империи дезертирует и возвращается домой в Ирландию. Там он узнаёт, что когда он был в армии, в стране разразился ужасающий голод, который унёс жизнь его матери, а его брат был повешен за сопротивление сносу дома. В то же время английские джентльмены, за которых он проливал кровь в далёкой Азии, обогащаются вывозя скудный урожай пшеницы на продажу и обрекают многострадальный народ его родины на вымирание...

Страна: Ирландия, Люксембург
Студия: Fastnet Films, Irish Film Board, Primeridian Entertainment
Продолжительность: 01:39:41
Перевод: Профессиональный (многоголосый, закадровый) | HDrezka Studio

Файл
Формат: MKV
Качество: WEB-DLRip-AVC
Видео: [email protected], 772x320, ~945 kbps, 24 fps
Аудио: AAC, 2 ch, ~96 Kbps
Субтитры: Русские (вшитый хардсаб на ирландскую речь), английские (вшитый хардсаб на ирландскую речь)
General
Unique ID : 70050868132544875347669241623333549746 (0x34B34E73F1E5D5F93113C57C7D1FB6B2)
Complete name : Черный 47-й _(2018)_WEB_DLRip-AVC_[-=DoMiNo=-].mkv
Format : Matroska
Format version : Version 4
File size : 742 MiB
Duration : 1 h 39 min
Overall bit rate : 1 041 kb/s
Movie name : Черный 47-й
Encoded date : UTC 2018-10-11 07:27:42
Writing application : mkvmerge v27.0.0 ('Metropolis') 64-bit
Writing library : libebml v1.3.6 + libmatroska v1.4.9
Attachments : poster.jpg

Video
ID : 1
Format : AVC
Format/Info : Advanced Video Codec
Format profile : [email protected]
Format settings : CABAC / 12 Ref Frames
Format settings, CABAC : Yes
Format settings, ReFrames : 12 frames
Codec ID : V_MPEG4/ISO/AVC
Duration : 1 h 39 min
Bit rate : 945 kb/s
Width : 772 pixels
Height : 320 pixels
Display aspect ratio : 2.40:1
Frame rate mode : Constant
Frame rate : 24.000 FPS
Color space : YUV
Chroma subsampling : 4:2:0
Bit depth : 8 bits
Scan type : Progressive
Bits/(Pixel*Frame) : 0.159
Stream size : 673 MiB (91%)
Title : RIP_BY_-=DoMiNo=-
Writing library : x264 core 155 r2901M 7d0ff22
Encoding settings : cabac=1 / ref=12 / deblock=1:-1:-1 / analyse=0x3:0x133 / me=umh / subme=10 / psy=1 / psy_rd=1.03:0.00 / mixed_ref=1 / me_range=32 / chroma_me=1 / trellis=2 / 8x8dct=1 / cqm=0 / deadzone=21,11 / fast_pskip=1 / chroma_qp_offset=-2 / threads=6 / lookahead_threads=1 / sliced_threads=0 / nr=0 / decimate=1 / interlaced=0 / bluray_compat=0 / constrained_intra=0 / bframes=12 / b_pyramid=2 / b_adapt=2 / b_bias=0 / direct=3 / weightb=1 / open_gop=0 / weightp=2 / keyint=240 / keyint_min=24 / scenecut=40 / intra_refresh=0 / rc_lookahead=40 / rc=2pass / mbtree=0 / bitrate=945 / ratetol=1.0 / qcomp=0.70 / qpmin=0 / qpmax=69 / qpstep=4 / cplxblur=20.0 / qblur=0.5 / vbv_maxrate=50000 / vbv_bufsize=62500 / nal_hrd=none / filler=0 / ip_ratio=1.40 / pb_ratio=1.30 / aq=1:1.00
Language : English
Default : Yes
Forced : No
Color range : Limited
Color primaries : BT.709
Transfer characteristics : BT.709
Matrix coefficients : BT.709

Audio
ID : 2
Format : AAC LC SBR
Format/Info : Advanced Audio Codec Low Complexity with Spectral Band Replication
Commercial name : HE-AAC
Format settings : Explicit
Codec ID : A_AAC-2
Duration : 1 h 39 min
Bit rate : 96.0 kb/s
Channel(s) : 2 channels
Channel layout : L R
Sampling rate : 48.0 kHz
Frame rate : 23.438 FPS (2048 SPF)
Compression mode : Lossy
Stream size : 67.5 MiB (9%)
Title : MVO | HDRezka Studio
Language : Russian
Default : Yes
Forced : No

Menu
00:00:00.000 : :1
00:12:35.120 : :2
00:22:59.750 : :3
00:37:13.410 : :4
00:52:46.660 : :5
01:01:12.410 : :6
01:11:50.540 : :7
01:19:44.370 : :8
01:35:46.000 : :9
Источник http://BlaTor.org

Трекер:  [ 11-Окт-2018 11:40 ]

  

Скачать .torrent

Размер .torrent файла 15 KB


Размер: 742 MB
Хэш (hash) релиза: 765e01acf3e0678878ec9c65f5ef98735e31b135
Подписка на обновления:

Торренты, похожие на Черный 47-й Black 47 скачать торрент

Форум Название Автор Размер S L Добавлен
Зарубежные фильмы 2016-2018 (Новинки зарубежного кино) ·%· Черный 47-й / Black 47 (2018) WEB-DLRip от Scarabey | HDRezka Studio Galfimbul 15515033601.44 GB 0 0 1539366266

20:44

12-Окт-18

Зарубежные фильмы 2016-2018 (Новинки зарубежного кино) ·%· Черный 47-й / Black 47 (2018) WEB-DLRip-AVC от OlLanDGroup | HDrezka Studio Galfimbul 17356708331.62 GB 0 0 1539166811

13:20

10-Окт-18

Зарубежные фильмы 2016-2018 (Новинки зарубежного кино) ·%· Черный 47-й / Black 47 (2018) WEB-DL 1080p | HDrezka Studio Galfimbul 39576100553.69 GB 0 0 1539160868

11:41

10-Окт-18

Зарубежные фильмы 2016-2018 (Новинки зарубежного кино) ·%· Черный 47-й / Black 47 (2018) WEB-DLRip от Generalfilm | КПК | P Galfimbul 396387972378 MB 0 0 1539112894

22:21

9-Окт-18

Зарубежные фильмы 2016-2018 (Новинки зарубежного кино) ·%· Черный 47-й / Black 47 (2018) WEB-DLRip от ExKinoRay | P Galfimbul 782004224746 MB 0 0 1539088859

15:40

9-Окт-18

Зарубежные фильмы 2016-2018 (Новинки зарубежного кино) ·%· Чёрный 47-й / Black '47 (2018) WEB-DLRip | HDrezka Studio Galfimbul 15680149801.46 GB 0 0 1539166916

13:21

10-Окт-18

Зарубежные фильмы 2016-2018 (Новинки зарубежного кино) ·%· Чёрный 47-й / Black '47 (2018) WEB-DLRip | HDrezka Studio Galfimbul 14696222721.37 GB 0 0 1539069012

10:10

9-Окт-18

Еще никто не оставлял запись к записи скачать торрент Черный 47-й Black 47 . Будь первым!

!Обратная связь