Скачать через торрент Анатомия измены Anatomy of Betrayal Фильм бесплатно в хорошем качестве torrent

Скачивайте на UnionPeer.org фильмы через торрент без регистрации. Новинки кино в хорошем качестве через торрент. На UnionPeer.org можно скачать через торрент фильмы 2014 и 2015 годов. Самые новые фильмы.

Скачать торрент Анатомия измены Anatomy of Betrayal бесплатно через .torrent фильм мультфильм сериал

Статистика раздачи
Размер:  3.47 GB   |    Зарегистрирован:  7 дней   |    .torrent скачан:  112 раз   |   
Раздают:  1  
   
загрузка...
 
Автор Сообщение

Galfimbul

avatar Galfimbul


Анатомия измены / Anatomy of Betrayal

Страна: Россия
Производство: Студия документальных фильмов Санкт-Петербурга
Год выпуска: 2018
Жанр: драма
Продолжительность: 01:28:07

Режиссер: Николай Дрейден
Авторы сценария: Николай Дрейден, Лилия Бурдинская

В ролях: Александр Анриа, Ану Палеваара, Полина Толстун, Евгений Ткачук, Николай Дрейден, Каспер Равнхой, Ютте Кьобек Йорн

Описание: Четыре новеллы происходящие в разных странах мира, объединённые темой «измены». Современная полифония горькой стороны любви и дружбы.. .. Финляндия. Он и Она — идеальная семья. Они лгут друг другу в течение десяти лет. Сегодня, в юбилей свадьбы, они должны сказать друг другу правду…. .. Австрия. День накануне свадьбы. Русская модель Клара проводит последнюю ночь с возлюбленным, но, возможно, возлюбленный: не её жених… …Китай. Режиссер из Европы приезжает снимать рекламу мясорубки «Счастье». Во время съемки богатый заказчик требует режиссера изменить концепцию, угрожая жизни режиссера. Создателю предстоит либо вновь изменить себе, либо себя. …Дания. Когда-то София была знаменитой танцовщицей. Теперь ей 91 и она скована артритом.. Сегодня она получит приглашение из далекой Палестины от авторитарного хореографа Рахель станцевать возможно последнюю партию в своей жизни…


Перевод: Профессиональный (одноголосый, закадровый) | Николай Дрейден
Субтитры: нет
Качество: WEB-DL 1080p
Формат: МКV
Видео кодек: AVC
Аудио кодек: АС3 | AAC
Видео: 1920x1080 (16:9), 24.000 fps, MPEG-4 AVC ~5 129 kbps avg
Аудио №1: 48 kHz, AC3 Dolby Digital, 3/2 (L,C,R,l,r) + LFE ch, ~384 kbps | RUS
Аудио №2: 48.0 kHz, Advanced Audio Codec LC, 2/0 (L,R) ch, ~126 kbps | RUS



<span style="color:Green;">Дополнительная информация: По задумке Николая Дрейдена актёры в фильме разговаривают на различных языках
(китайский, финский, иврит, английский, немецкий, датский), а поверх их речи наложен одноголосый перевод-рассказ режиссёра
General
Уникальный идентификатор : 181506044388574211052858332638423268459 (0x888CCAE7ABD9D8EFD338E506C887BC6B)
Полное имя : Анатомия.измены.2018.WEBDL.1080p.iTunes-ylnian.mkv
Формат : Matroska
Версия формата : Version 4 / Version 2
Размер файла : 3,47 Гбайт
Продолжительность : 1 ч. 28 м.
Общий поток : 5642 Кбит/сек
Название фильма : Анатомия.измены.2018.WEBDL.1080p.iTunes-ylnian
Дата кодирования : UTC 2018-10-08 14:59:35
Программа кодирования : mkvmerge v27.0.0 ('Metropolis') 64-bit
Библиотека кодирования : libebml v1.3.6 + libmatroska v1.4.9

Видео
Идентификатор : 1
Формат : AVC
Формат/Информация : Advanced Video Codec
Профиль формата : [email protected]
Настройки формата : CABAC / 4 Ref Frames
Параметр CABAC формата : Да
Параметр RefFrames формата : 4 кадра
Идентификатор кодека : V_MPEG4/ISO/AVC
Продолжительность : 1 ч. 28 м.
Битрейт : 5129 Кбит/сек
Ширина : 1920 пикселей
Высота : 1080 пикселей
Соотношение сторон : 16:9
Режим частоты кадров : Постоянный
Частота кадров : 24,000 кадра/сек
Цветовое пространство : YUV
Субдискретизация насыщенности : 4:2:0
Битовая глубина : 8 бит
Тип развёртки : Прогрессивная
Бит/(Пиксели*Кадры) : 0.103
Размер потока : 3,16 Гбайт (91%)
Заголовок : Анатомия.измены.2018.WEBDL.1080p.iTunes-ylnian
Язык : Russian
Default : Да
Forced : Да
Цветовой диапазон : Limited
Основные цвета : BT.709
Характеристики трансфера : BT.709
Коэффициенты матрицы : BT.709

Аудио #1
Идентификатор : 2
Формат : AC-3
Формат/Информация : Audio Coding 3
Идентификатор кодека : A_AC3
Продолжительность : 1 ч. 28 м.
Вид битрейта : Постоянный
Битрейт : 384 Кбит/сек
Каналы : 6 каналов
Расположение каналов : Front: L C R, Side: L R, LFE
Частота : 48,0 КГц
Частота кадров : 31,250 кадров/сек (1536 SPF)
Битовая глубина : 16 бит
Метод сжатия : С потерями
Размер потока : 242 Мбайт (7%)
Заголовок : AC3 5.1
Язык : Russian
Default : Да
Forced : Да

Аудио #2
Идентификатор : 3
Формат : AAC
Формат/Информация : Advanced Audio Codec
Профиль формата : LC
Идентификатор кодека : A_AAC-2
Продолжительность : 1 ч. 28 м.
Битрейт : 126 Кбит/сек
Каналы : 2 канала
Расположение каналов : Front: L R
Частота : 48,0 КГц
Частота кадров : 46,875 кадров/сек (1024 SPF)
Метод сжатия : С потерями
Размер потока : 79,2 Мбайт (2%)
Заголовок : AAC 2.0
Язык : Russian
Default : Нет
Forced : Нет

Меню
00:00:00.000 : ru:1
00:06:54.833 : ru:2
00:14:22.999 : ru:3
00:21:54.290 : ru:4
00:27:11.040 : ru:5
00:34:33.873 : ru:6
00:41:27.039 : ru:7
00:46:03.830 : ru:8
00:51:55.371 : ru:9
00:58:40.412 : ru:10
01:04:28.703 : ru:11
01:10:10.328 : ru:12
01:16:56.161 : ru:13
Источник http://BlaTor.org

Трекер:  [ 10-Окт-2018 10:50 ]

  

Скачать .torrent

Размер .torrent файла 18 KB


Размер: 3.47 GB
Хэш (hash) релиза: 48f202fbf6b90a4049d8c2ef3e6bfa3addc52485
Подписка на обновления:

Торренты, похожие на Анатомия измены Anatomy of Betrayal скачать торрент

Форум Название Автор Размер S L Добавлен
Российские фильмы 2016-2018 (Новинки русского кино) ·%· Анатомия измены / Anatomy of Betrayal (2018) WEB-DLRip Galfimbul 15684464641.46 GB 0 0 1539096263

17:44

9-Окт-18

Еще никто не оставлял запись к записи скачать торрент Анатомия измены Anatomy of Betrayal . Будь первым!

!Обратная связь